#TITLE:Naturally;
#SUBTITLE:;
#ARTIST:浜崎あゆみ;
#TITLETRANSLIT:;
#SUBTITLETRANSLIT:;
#ARTISTTRANSLIT:Ayumi Hamasaki;
#CREDIT:;
#BANNER:naturally.png;
#BACKGROUND:naturally-bg.png;
#LYRICSPATH:;
#CDTITLE:cdtitle.png;
#MUSIC:Ayumi Hamasaki - I am... - 06 - Naturally.mp3;
#OFFSET:0.300;
#SAMPLESTART:41.327;
#SAMPLELENGTH:12.000;
#SELECTABLE:YES;
#BPMS:0.000=129.950;
#STOPS:;
#BGCHANGES:;
// cache tags:
#FIRSTBEAT:2.000;
#LASTBEAT:542.000;
#SONGFILENAME:Songs/SS Ayu Style -Mini Pack-/naturally-ayumi hamasaki/naturally.sm;
#HASMUSIC:1;
#HASBANNER:1;
#MUSICLENGTH:257.619;
// end cache tags

//---------------dance-single - ----------------
#NOTES:
     dance-single:
     :
     Hard:
     10:
     0.849,0.789,0.683,0.128,0.879,1322.000,176.000,33.000,0.000,0.000:
0000
0000
0000
0000
0000
0000
0000
0000
0010
0000
0001
0010
0001
0000
0010
0100
,
0000
1000
0000
0010
0100
0001
0010
0001
0010
0001
0010
0100
0010
0000
0001
1000
,
0000
0010
0000
0100
0001
0010
0001
0010
0100
0010
0001
0010
0100
0000
1000
0010
,
0000
0100
0000
0001
0010
0000
0100
0000
1000
0000
0000
0000
0000
0000
1001
0000
,
1010
0000
1001
0000
1100
0000
1001
0000
0010
1000
0001
0010
0100
0000
1000
0010
,
0000
0100
0000
0100
0001
0100
0010
0100
0001
0100
0010
0100
0001
0000
1000
0100
,
0000
0010
0000
0010
0001
0010
0100
0010
0001
1000
0010
0100
0001
0000
0010
0100
,
0000
1000
0000
1000
0001
0000
0100
0000
0010
0000
0000
0000
0000
0000
0001
0010
,
0001
0010
0100
1000
0001
0100
0010
1000
0001
0010
0100
1000
0001
0000
0010
0100
,
0000
0000
1001
0000
1100
0000
0000
0000
0001
0010
0001
0010
0100
0010
0001
1000
,
0000
0000
0010
0000
1000
0001
0000
0000
0010
0000
0010
0000
0100
0000
1000
0000
,
0001
0000
0001
0000
0100
0001
0100
0001
0100
0010
0100
0010
0100
0001
0100
0010
,
0100
0001
0100
0010
0100
0001
0100
0010
1000
0001
0010
0100
1000
0000
0001
1000
,
0010
0000
0000
1001
0000
0000
1100
0000
0001
0010
0001
0010
0100
0000
1000
0010
,
1000
0000
0000
1001
0000
0000
1100
0000
0001
0010
0001
0010
0100
0000
1000
0001
,
1000
0000
0000
1010
0000
0000
1001
0000
1100
0000
0001
0000
0010
0000
0010
0000
,
0100
0000
1000
0000
1000
0000
1000
0000
0010
1000
0010
1000
0100
0000
0010
0001
,
0100
0010
1000
0100
0000
0000
0010
0000
0001
0010
0100
0010
0001
0000
1000
0010
,
1000
0001
0100
0010
0000
0000
1000
0000
0001
1000
0100
1000
0001
0000
0010
0001
,
1000
0000
0000
1010
0000
0000
0001
1000
0100
1000
0001
0000
0100
0000
0100
0000
,
0010
0000
1000
0000
0100
0000
0100
0000
0010
0001
1000
0100
0010
0000
0001
0010
,
0100
1000
0001
0100
0010
1000
0001
0000
0100
0010
1000
0001
1000
0000
0010
1000
,
0100
1000
0001
0010
0100
1000
0001
0000
0010
1000
0010
1000
0100
0000
0010
1000
,
0100
1000
0001
0100
0010
0100
0001
0000
1100
0000
0001
0000
1010
0000
0001
0000
,
0100
0000
1000
0000
0010
0000
0100
0000
0001
1000
0100
1000
0001
0000
0010
0100
,
1000
0000
0010
0100
0010
0000
1100
0000
0010
0000
0010
0000
1000
0000
0001
0010
,
0100
0000
0000
1000
0000
0000
0001
0000
1001
0000
1001
0000
1001
0000
0010
1000
,
0100
0010
0001
0000
0100
0000
0010
0000
0001
1000
0100
0000
1001
0000
0010
0000
,
1000
0100
1000
0001
0100
0010
1000
0100
0012
0000
0000
0000
0000
0000
0000
0000
,
0003
0000
0000
0000
0010
1000
0001
0000
1100
0000
0001
0000
1000
0000
0010
0000
,
0100
0000
0001
0000
0001
0000
0010
0000
0100
1000
0001
0010
0100
0000
0010
1000
,
0000
0000
0001
0000
0010
0000
0010
0000
0100
1000
0001
0100
0010
0000
1000
0000
,
1100
0000
1001
0000
1010
0000
1100
0000
0001
0010
0100
1000
0001
0000
0100
0010
,
0000
0000
1000
0000
1001
0000
0000
0000
0010
1000
0100
0010
0001
0000
0100
0010
,
0000
0000
1000
0000
0001
1000
0000
0000
0100
1000
0010
1000
0001
0000
0010
0100
,
0000
1000
0001
0000
1010
0000
0010
1000
,
0100
0000
1000
0000
0001
0000
0010
0001
1000
0100
0010
0001
1000
0000
1010
0000
,
1001
0000
0000
1100
0000
0000
1001
0000
1010
0000
0000
0101
0000
0000
0101
0000
,
0101
0000
0101
0000
0101
0000
0010
1000
0100
0000
0000
0010
0000
0000
0010
0000
,
0011
0000
0000
2000
0000
0000
0010
0000
3010
0000
0000
0100
0000
0000
0100
0000
,
0001
0000
0000
0000
1000
0000
0001
1000
0001
0000
1000
0010
0000
0100
0001
0000
,
0010
0000
0100
1000
0000
0010
1000
0000
1001
0000
0000
1100
0000
0000
1001
0000
,
1001
0000
1001
0000
1001
0000
0010
1000
0010
0000
1000
0001
0000
0010
0100
0000
,
1000
0000
0000
1001
0000
0000
1100
0000
0101
0000
0000
0000
1010
0000
0000
0000
,
0022
0000
0000
0033
0010
0000
0010
0000
0010
0001
0100
0010
0001
0000
1000
0010
,
0000
0000
0100
0000
1001
0000
0000
0000
0001
0010
0100
1000
0001
0010
0100
1000
,
0000
0000
1010
0000
0001
1100
0000
0000
0010
1000
0100
0010
0001
0100
0010
1000
,
0000
1100
0011
0000
0011
1100
0011
1100
,
1010
0000
0101
0000
1010
0000
0101
0000
0010
1000
0100
0010
0001
0100
0010
1000
,
0000
0000
1100
0000
0011
0000
0000
0000
0010
1000
0100
0010
0001
0100
0010
1000
,
0100
0010
0001
0000
0101
0010
0000
0000
0010
1000
0100
0010
0001
0100
0010
1000
,
0000
1100
0011
0000
0001
0010
0010
0100
,
0100
0000
1000
0000
1000
0000
1000
0000
0001
0100
0010
1000
0100
0010
0001
0100
,
0000
0000
1010
0000
0101
0000
0000
0000
0010
0010
1000
0100
0010
0001
0100
0010
,
0000
0000
1001
0000
1100
0011
0000
0000
0001
0010
0100
1000
0001
0100
0010
1000
,
0100
0000
0001
0000
0001
0010
0100
1000
0001
0010
0100
1000
0001
0010
0100
1000
,
0001
0010
0100
1000
0001
0010
0100
1000
0010
0100
0001
1000
0010
0000
1000
0100
,
1000
0000
0000
0101
0000
0000
0010
0000
0010
1000
0100
0010
0001
0000
0010
0001
,
0010
0000
0000
1100
0000
0000
1010
0000
0010
0000
1000
0000
0100
0000
0010
1000
,
0010
0000
0000
0100
0000
0000
1001
0000
1100
0000
0001
0000
0010
0000
0010
0000
,
0000
0000
1000
0000
1000
0000
1000
0000
0001
0100
0010
1000
0100
0000
0010
0001
,
0100
0000
0000
1010
0000
0000
0101
0000
0001
0010
0001
0000
0101
0000
0010
1000
,
0100
0000
0000
0010
0000
0000
0011
0000
1000
0100
1000
0100
1000
0000
0010
1000
,
0100
0000
0000
0001
0010
0000
0100
1000
0001
1000
0010
0000
0100
0000
0100
0000
,
0001
0100
0010
0100
0001
0100
0010
1000
2002
0000
0000
0000
0000
0000
0000
3003
,
0000
0000
0000
0000
0011
0000
0100
0000
0001
1000
0020
0000
0100
0000
0100
0000
,
0030
0000
0000
0000
0001
0000
0000
0000
0010
0100
0001
0010
0100
1000
0001
0100
,
0000
0000
0010
1000
0001
0100
0000
0000
0010
0010
1000
0100
0010
0001
0100
0010
,
1000
0000
1001
0000
1100
0000
1001
0000
0010
1000
0100
0010
0001
0100
0020
1000
,
0000
0000
1000
0000
1030
0000
0000
0000
0001
0100
0010
1000
0100
0010
0001
0100
,
0020
0000
1000
0000
1030
0000
0100
0000
0010
0100
0001
0100
0010
0100
0001
1000
,
0010
0000
1000
0000
1001
0000
1100
0000
1002
0000
0010
0000
0013
0000
0100
1000
,
0002
0000
0000
0000
0003
0000
0001
1000
0100
0000
0010
0001
0000
0100
0010
0000
,
1000
0000
0001
0010
0000
0100
1000
0000
1001
0000
0100
1000
0000
0000
0002
0000
,
0100
0000
0100
0000
0103
0000
0010
1000
0010
1000
0100
0010
0001
0000
0010
0000
,
0011
0000
0000
1100
0000
0000
1001
0000
1001
0000
0000
0110
0000
0000
0001
1000
,
0002
0000
0100
0000
0100
0003
0001
0100
0010
0000
0000
2000
0000
0000
0002
3000
,
0010
0000
0000
0010
0000
0000
0103
0000
0001
0000
0100
0020
0000
0000
1030
0000
,
1001
0000
0010
0000
0001
0000
1000
0001
1000
0000
0100
0010
0000
0000
0101
0000
,
0110
0000
0100
0001
1000
0000
1100
0000
1002
0000
0000
0000
0010
0000
0000
0000
,
1000
0000
0000
0000
0100
0000
0103
0000
0010
1000
0010
1000
0010
0000
1000
0010
,
0000
0000
0100
0000
0101
0000
0000
0000
0001
1000
0001
1000
0001
1000
0100
1000
,
0000
0000
1001
0000
1100
1001
0000
0000
0010
1000
0100
0010
0001
0100
0010
1000
,
0000
1010
0101
0000
1010
1002
0010
1003
,
0200
0000
0010
0000
0010
0000
0310
0000
0001
1000
0010
1000
0100
0010
0001
0100
,
0000
0000
1010
0000
0110
0000
0000
0000
0001
0010
0100
0010
0001
0100
0010
0000
,
0000
1000
0001
0000
1001
1100
0000
0000
0001
0010
0100
1000
0001
0100
0010
1000
,
0000
0011
1100
0000
0010
0020
1000
2030
,
0001
0000
3002
0000
0010
0000
0013
0000
0001
0010
0100
1000
0001
0100
0010
1000
,
0000
0000
1100
0000
0011
0000
0000
0000
0001
0001
1000
0010
0100
0001
1000
0010
,
0000
0000
1000
0000
0100
0011
0000
0000
0100
1000
0010
0010
0100
0001
0001
1000
,
0100
0000
0010
0000
0001
0010
0100
0010
1000
0100
0010
1000
0010
0001
0100
1000
,
0001
0001
0010
0010
0100
1000
0100
0010
0100
0000
0010
0000
1000
0000
1001
0000
,
1100
0000
1001
0000
1010
0000
1000
0000
0001
0010
1000
0001
1000
0000
0010
0100
,
0000
0000
0101
0000
0010
1100
0000
0000
0001
0000
0002
0000
1000
0000
1000
0000
,
0010
0000
0000
0003
0000
0000
0010
0000
0000
0000
0000
0000
0100
0000
0000
0000
0000
0000
1000
0000
0000
0000
0000
0000
0010
0000
0000
0000
0100
0000
0000
0000
1000
0000
0000
0000
0010
0000
0000
0000
0001
0000
0000
0000
0010
0000
0000
0000
,
0100
0000
0000
0000
1001
1100
1001
1010
,
1001
0000
1100
0000
1001
0000
0010
0000
0010
0100
0010
0100
0010
1000
0100
1000
,
0000
0000
0011
0000
0011
1100
0000
0000
0002
0000
1000
0000
2003
0000
0010
0000
,
3020
0000
0100
0000
0100
0030
0100
0000
0001
0010
0100
1000
0001
0010
0100
1000
,
0010
0001
0010
0001
0010
0001
0010
0001
0010
0001
0010
0100
1000
0000
0001
0010
,
0100
1000
0001
0100
0010
0000
0010
1000
0100
0010
0001
0100
0010
0000
0010
1000
,
0100
1000
0010
1000
0100
0000
0001
0010
0100
0010
0001
0010
0100
0000
0001
1000
,
0010
1000
0100
0010
0001
0000
0100
0010
0200
0000
0000
0300
0001
1000
0001
1000
,
0001
1000
0100
1000
0010
0001
0100
0010
1000
0000
0010
0001
1000
0000
0100
1000
,
0011
0000
0000
1100
0000
0000
0020
0000
1000
0000
0000
1030
0000
0000
0001
0000
,
0001
0000
0010
0100
0010
0000
0001
1000
0010
0000
0000
0100
0000
0000
1001
0000
,
1100
0000
0000
0011
0000
0000
1001
0000
0010
0000
0000
0010
0000
0000
1000
0000
,
0001
0000
0010
0000
0100
0000
0010
0001
0010
0000
0001
1000
0000
0010
0100
0000
,
0001
0000
0010
0100
0000
1000
0001
0000
0010
1000
0001
1000
0000
1000
0100
0000
,
0010
0000
0011
0000
0100
0000
1000
0001
1000
0000
0010
0100
0000
0001
0010
0000
,
0011
0000
0000
1100
0000
0000
1001
0000
1010
0000
0000
0000
0002
1000
0000
0000
,
0010
0000
0000
0003
0100
0000
0010
1000
0010
0000
1000
0100
0000
0010
0001
0000
,
0100
0000
0001
1000
0000
0100
0010
0000
0011
0000
0000
1100
0000
0000
1001
0000
,
1001
0000
0010
1000
0100
0000
0010
0000
0011
0000
0000
1100
0000
0000
1001
0000
,
0020
0000
0000
1000
0000
0030
1000
0000
0001
0000
0000
0001
0000
0000
0100
0000
,
0100
0000
0010
1000
0100
0000
0010
0000
0001
0000
0100
0010
0000
1000
0100
0000
,
0010
0000
0001
0100
0000
0010
1000
0000
0001
1000
0000
1100
0000
0000
0011
0000
,
0011
0000
0100
0000
1000
0000
0001
1000
0001
0000
1000
0100
0000
0010
0001
0000
,
0100
0000
0000
0101
0000
0000
1001
0000
1100
0000
0000
0000
0020
0000
0000
0000
,
1000
0000
0000
0000
1000
0000
1030
0000
0001
0010
0100
1000
0001
0000
0100
0010
,
0000
0000
1000
0000
1001
0000
0000
0000
0001
0001
1000
0010
1000
0100
0010
0001
,
0000
0000
0100
0000
0101
1010
0000
0000
0010
1000
0100
0010
0001
0000
0100
0010
,
0000
1000
1001
0000
0100
0020
0001
0100
,
0001
0030
2000
0000
0010
0000
3010
0000
0010
1000
0100
0010
0001
0000
0100
0010
,
0000
0000
1000
0000
1001
0000
0000
0000
0010
0010
1000
0100
0010
0001
0100
0010
,
0000
0000
1000
0000
0001
1100
0000
0000
0001
1000
0100
0010
0001
0000
0100
0010
,
0000
1000
1001
0000
0100
0100
0010
0010
,
0001
0000
0001
0000
1000
0000
1000
0000
0010
1000
0100
0010
0001
0000
0100
0010
,
0000
0000
1000
0000
1001
0000
0000
0000
0010
0010
1000
0100
0010
0001
0100
0010
,
0000
0000
1000
0000
1001
1100
0000
0000
0001
1000
0100
0100
0010
0000
0001
0100
,
0000
0010
1001
0000
1001
0010
1000
0100
,
0010
0000
0001
0000
0001
0000
1000
0000
0010
1000
0100
0010
0001
0000
0010
0100
,
0000
0000
1000
0000
1001
0000
0000
0000
0010
1000
0100
0010
0001
0100
0010
1000
,
0000
0000
0001
0000
0011
1100
0000
0000
0010
1000
0100
0010
0001
0000
0001
0100
,
0000
0010
1001
0000
0010
0000
0000
0000
;
